#TITLE:Rage of the Winter;
#SUBTITLE:;
#ARTIST:Rhapsody;
#TITLETRANSLIT:;
#SUBTITLETRANSLIT:;
#ARTISTTRANSLIT:;
#CREDIT:;
#BANNER:rage of the winterbn.png;
#BACKGROUND:rage of the winterbg.png;
#LYRICSPATH:;
#CDTITLE:kire.png;
#MUSIC:03.- Rage Of The Winter.mp3;
#OFFSET:0.000;
#SAMPLESTART:34.286;
#SAMPLELENGTH:12.000;
#SELECTABLE:YES;
#BPMS:0.000=175.000,37.000=87.500,76.000=175.000,225.500=87.500,241.750=175.000,341.000=87.500,357.000=175.000,582.000=87.500,600.000=175.000,640.000=87.500,642.000=175.000,754.000=87.500,797.750=43.750,799.375=175.000;
#STOPS:0.000=0.220
,73.500=0.240
,74.500=0.240
,75.500=0.200
,241.750=0.240
,799.375=0.560
;
#BGCHANGES:;
// cache tags:
#FIRSTBEAT:37.000;
#LASTBEAT:930.000;
#SONGFILENAME:Songs/Music V.I.P ^_^/Rage of the Winter- Kire/rage of the winter.sm;
#HASMUSIC:1;
#HASBANNER:1;
#MUSICLENGTH:369.042;
// end cache tags

//---------------dance-single - ----------------
#NOTES:
     dance-single:
     :
     Hard:
     11:
     0.935,1.000,0.729,0.355,1.000,2015.000,269.000,131.000,0.000,0.000:
0000
0000
0000
0000
,
0000
0000
0000
0000
,
0000
0000
0000
0000
,
0000
0000
0000
0000
,
0000
0000
0000
0000
,
0000
0000
0000
0000
,
0000
0000
0000
0000
,
0000
0000
0000
0000
,
0000
0000
0000
0000
,
0000
0000
0000
1001
1000
0001
0010
0100
1000
0100
1000
0010
,
0100
0010
0100
0110
0100
0001
0010
0100
1000
0100
0010
0001
,
0100
0001
0100
1001
1000
0100
0010
0100
1000
0010
0100
0001
,
0010
0001
0010
0011
0001
1000
0100
1000
0100
1000
0100
1000
,
0100
1000
0100
1100
1000
0001
0100
0001
0010
1000
0010
0001
,
0100
0000
0010
0000
1000
0000
1010
0000
0100
0000
0001
0000
0010
0000
0100
0000
1000
0000
0100
0000
0010
0000
0001
0010
,
0001
0010
0001
0000
0010
0000
0011
0000
0010
0000
0100
0000
1000
0000
0010
0000
0100
0000
0010
0000
0100
0000
0001
0000
,
0010
0100
1000
1001
1000
0100
0010
0001
0100
0001
0100
0001
,
1000
0010
1000
0110
0000
0000
0011
0000
0000
1100
0000
0000
,
1010
0000
0202
0000
0000
0000
0000
0303
,
1001
0000
1000
0000
0100
0000
0010
0000
0001
0000
1000
0000
,
0001
0000
0100
0000
0001
0000
0010
0000
0100
0000
1000
0000
,
2020
0000
3030
0000
0000
0000
0202
0000
0303
0000
0000
0000
,
0011
0000
0010
0000
0100
0000
1000
0000
0100
0000
1000
0000
,
1010
0000
1000
0000
0010
0000
0100
0000
0001
0000
0010
0000
,
0022
0033
2200
3300
,
1100
0001
1000
0100
0010
0001
0100
0001
0100
0001
0010
0001
,
0010
0100
1000
0100
1100
1000
0100
0010
0001
0100
0001
0100
,
0001
0010
0001
0010
0100
1000
0100
1000
0010
1000
0010
1000
,
0100
0010
0100
0010
0100
0010
0001
0010
0001
0010
0100
1000
,
0100
0010
0001
0010
0001
0100
0001
0100
0001
0010
0100
1000
,
0100
1000
0100
0010
0100
0010
0100
0010
0100
0010
0100
0010
,
0101
0000
0011
0000
0110
0000
2200
0000
0000
3300
0000
0000
,
0100
0101
0010
1100
,
1000
0011
0001
1001
,
0010
0110
0100
1010
,
1000
0011
0001
1100
,
0001
1010
0100
1001
,
0010
1001
1000
0110
,
0010
0110
0100
1010
,
1000
0000
1100
0000
0001
0100
0010
1000
,
0001
0101
0100
1010
,
0010
1100
1000
0011
,
0100
0101
0001
0110
,
0010
1001
1000
1001
,
0100
0110
0010
1001
,
0001
1010
1000
0101
,
0010
0000
1100
0100
0000
0001
0011
0000
,
0010
0000
1001
0001
1000
0100
0011
1000
,
0110
1000
0100
0010
0001
0100
0010
1000
0010
0100
0001
0010
0100
1000
0010
1000
,
0001
1000
0100
1000
0100
0010
0001
0010
1000
0010
0100
0010
1000
0010
0001
0010
,
1000
0010
1000
0010
0001
0010
0001
0100
0001
1000
0001
0010
0001
0100
0001
1000
,
0001
0010
0001
0100
0010
1000
0100
0010
0001
0010
0100
1000
0001
1000
0010
1000
,
0001
0100
0010
1000
0100
0010
0001
1000
0001
0100
0001
0010
0001
0100
0001
1000
,
0001
1000
0010
0100
0010
0100
0010
0100
0010
1000
0010
1000
0100
0010
0001
0010
,
0100
1000
0010
0100
0001
0010
1000
0010
0001
0010
1000
0010
0001
0010
0001
0010
,
0001
1000
0001
0010
0001
0010
0100
1000
0100
0010
0001
0010
0100
1000
0010
0100
,
0001
0000
0000
0000
0000
0000
0000
0000
0000
0000
0000
0000
0100
0000
0000
0000
0000
0000
0000
0000
0000
0000
0000
0000
0010
0000
0000
0000
0000
0000
0000
0000
0000
0000
0000
0000
0100
0000
0000
0000
0000
0000
0000
0000
0000
0000
0000
0000
0001
0000
0000
0000
0000
0000
0000
0000
0010
0000
0000
0000
0000
0000
0000
0000
0100
0000
0000
0000
0000
0000
0000
0000
2000
0000
0000
0000
0000
0000
0000
0000
0000
0000
0000
0000
0000
0000
0000
0000
0000
0000
0000
0000
0000
0000
0000
0000
0000
0000
0000
0000
0000
0000
0000
0000
0000
0000
0000
0000
0000
0000
0000
0000
0000
0000
0000
0000
0000
0000
0000
0000
3000
0000
0000
0000
0000
0000
0001
0000
0000
0000
0000
0000
1000
0000
0000
0000
0000
0000
0000
0000
0000
0000
0000
0000
0001
0000
0000
0000
0000
0000
0000
0000
0000
0000
0000
0000
0010
0000
0000
0000
0000
0000
0000
0000
0000
0000
0000
0000
0100
0000
0000
0000
0000
0000
0000
0000
0000
0000
0000
0000
1200
0000
0000
0000
0000
0000
0000
0000
0000
0000
0000
0000
,
0000
0000
0000
0300
1000
0100
2000
0000
0000
0000
3002
0000
0000
0000
0203
0000
0000
0000
0000
0300
0001
0000
0010
0000
0001
0000
0010
0000
0100
0000
2002
0000
,
0000
0000
3003
0000
0000
0000
0110
0000
0000
0000
0000
0000
0000
0000
0120
0000
0000
0000
0030
0000
0100
0010
0100
0000
0000
0000
0020
0000
0100
0030
2000
0000
,
0000
0000
0000
0000
3100
0010
0200
0000
0000
0000
0000
0000
0000
0300
2000
0000
0000
0000
3000
0000
1000
0000
0010
0000
0100
0000
0001
0000
0010
0000
0100
0000
,
0100
0000
0000
0000
0000
0000
0000
0000
0000
0000
0000
0000
0010
0000
0000
0000
0000
0000
0000
0000
0100
0000
0000
0000
0000
0000
0000
0000
1000
0000
0000
0000
0000
0000
0000
0000
0100
0000
0000
0000
0000
0000
0000
0000
1000
0000
0000
0000
0000
0000
0000
0000
0100
0000
0000
0000
0000
0000
0000
0000
1000
0000
0000
0000
0000
0000
0000
0000
0100
0000
0000
0000
0000
0000
0000
0000
0010
0000
0000
0000
0000
0000
0000
0000
2002
0000
0000
3003
0000
0000
0000
0000
0000
0000
0000
0000
0000
0000
0000
0000
0000
0000
0000
0000
0000
0000
0000
0000
0000
0000
0000
0000
0000
0000
0000
0000
0000
0000
0000
0000
0000
0000
0000
0000
0000
0000
0000
0000
0000
0000
0000
0000
0000
0000
0000
0000
0000
0000
0000
0000
0000
0000
0000
0000
0010
0000
0000
0000
0000
0000
0000
0000
0000
0000
0000
0000
0000
0000
0000
0000
0000
0000
0000
0000
0000
0000
0000
0000
0000
0000
0000
0000
0000
0000
0000
0000
0000
0000
0000
0000
0000
0000
0000
0000
0000
0000
0000
0000
0000
0000
0000
0000
,
1001
0100
1010
0001
,
1100
1000
0011
0010
,
0101
0100
1001
1000
,
0011
0001
1010
0010
,
0011
1000
1100
0100
,
1001
0001
1001
0100
,
0110
0001
0110
0010
,
1001
0000
1000
0100
0010
0001
0100
0000
,
0101
1000
1010
0001
,
1100
0100
0110
1000
,
1001
0010
0110
0100
,
1001
0001
1010
0001
,
0101
1000
1100
0010
,
0011
0100
1001
0010
,
0110
0100
0000
0001
1001
0000
0010
0000
,
1001
0000
0010
0000
1000
0000
0001
0000
0110
0000
0100
0000
1001
0001
0010
0100
,
1000
0100
1000
0001
1000
0001
0010
0100
0010
0001
1000
0001
0100
0001
0010
0001
,
1000
0100
1000
0100
0010
0100
1000
0010
0100
0001
0100
0010
1000
0001
0010
0100
,
1000
0100
0010
0001
0100
0010
1000
0001
0100
0010
0100
0001
0100
1000
0100
0010
,
1000
0001
0010
0100
1000
0100
0010
0001
0100
0001
1000
0001
0100
0010
1000
0001
,
0100
0010
1000
0001
0010
0100
1000
0010
0100
0001
1000
0001
0100
0001
1000
0010
,
1000
0100
1000
0010
1000
0001
1000
0001
0010
0100
1000
0010
0100
0001
1000
0010
,
0100
0001
0010
0100
1000
0010
0100
0001
0010
0100
1000
0100
0010
0001
0100
1000
,
0100
0001
0010
0001
0010
0100
1000
0100
0010
0001
1000
0010
0100
0010
1000
0010
,
0100
0000
0000
0000
0000
0000
0000
0000
0001
0000
0000
0000
0000
0000
0000
0000
0010
0000
0000
0000
0000
0000
0000
0000
0002
0000
0000
0000
0000
0000
0000
0000
0000
0000
0000
0000
0000
0000
0000
0000
0000
0000
0000
0000
0000
0000
0000
0000
2000
0000
0000
0000
0000
0000
0000
0000
0000
0000
0000
0000
0000
0000
0000
0000
0000
0000
0000
0000
0000
0000
0000
0000
0000
0000
0000
0000
0000
0000
3000
0000
0000
0000
0000
0000
1003
0000
0000
0000
0000
0000
0000
0000
0000
0000
0000
0000
0001
0000
0000
0000
0000
0000
0000
0000
0000
0000
0000
0000
0010
0000
0000
0000
0000
0000
0000
0000
0000
0000
0000
0000
0100
0000
0000
0000
0000
0000
0000
0000
0000
0000
0000
0000
1000
0000
0000
0000
0000
0000
0000
0000
0000
0000
0000
0000
2002
0000
0000
0000
0000
0000
0000
0000
0000
0000
0000
0000
0000
0000
0000
0000
0000
0000
0000
0000
0000
0000
0000
0000
3000
0000
0000
0000
0000
0000
0003
0000
0000
0000
0000
0000
1000
0000
0000
0000
0000
0000
0100
0000
0000
0000
0000
0000
,
2000
0000
0000
0000
3020
0000
0000
0000
0230
0000
0000
0000
0000
0300
0001
0000
0010
0000
0100
0000
1000
0000
0001
0000
2001
0000
0000
0000
3000
0000
0000
0000
,
0220
0300
0000
0000
0030
0000
0000
0000
2000
0000
0000
0000
0000
0000
3010
0100
0010
0000
0100
0000
0200
0000
0010
0000
0002
0000
0300
0000
0000
0000
0103
0010
,
0200
0000
0000
0000
0000
0000
0000
0000
0000
0000
0000
0000
0000
0000
0000
0000
0000
0000
0000
0000
0000
0000
0000
0000
0000
0000
0000
0000
0000
0000
0000
0000
0000
0000
0000
0000
0000
0000
0000
0000
0000
0000
0000
0000
0000
0000
0000
0000
0001
0000
0000
0000
0000
0000
0000
0000
0000
0000
0000
0000
0000
0000
0000
0000
0000
0000
0300
0000
0000
0000
0000
0000
0000
0000
0000
0000
0000
0000
0000
0000
0000
0000
0000
0000
1000
0000
0000
0000
0000
0000
0000
0000
0000
0000
0000
0000
0001
0000
0000
0000
0000
0000
0000
0000
0000
0000
0000
0000
1000
0000
0000
0000
0000
0000
0000
0000
0000
0000
0000
0000
0001
0000
0000
0000
0000
0000
0000
0000
0000
0000
0000
0000
0010
0000
0000
0000
0000
0000
0000
0000
0000
0000
0000
0000
0200
0000
0000
0000
0000
0000
0000
0000
0000
0000
0000
0000
0000
0000
0000
0000
0000
0000
0000
0000
0000
0000
0000
0000
1300
0000
0000
0000
0000
0000
0000
0000
0100
0000
0000
0000
0000
0000
0000
0000
0010
0000
0000
0000
0000
0000
0000
0000
,
0001
0000
1000
0000
0100
0000
0010
0000
0100
0000
0010
0000
1001
0000
0000
0000
0000
0000
0000
0000
0000
0000
0000
0000
0000
0000
0000
0000
0000
0000
0000
0000
0000
0000
0000
0000
0001
0000
0000
1000
0000
0000
0001
0000
0000
1000
0000
0000
,
0001
0010
0100
1000
0100
0010
0100
0001
0100
1000
0100
0010
0100
1000
0100
1000
,
0010
1000
0001
1000
0010
1000
0100
1000
0010
1000
0001
1000
1001
1000
0010
0001
,
0010
1000
0010
0100
0010
1000
0010
0001
0010
0100
0010
1000
0010
0001
0010
0100
,
0001
0100
0010
1000
0100
0010
0001
0010
0100
1000
0100
0010
0011
1000
0100
0010
,
0001
0100
0010
1000
0100
0001
0100
0010
1000
0001
1000
0010
0101
0010
0001
0010
,
0001
1000
0001
0100
0001
1000
0001
0010
0001
0100
0001
1000
1100
1000
0100
0010
,
0100
0001
0100
1000
0100
0010
0100
0001
0100
1000
0100
0010
0011
0001
1000
0001
,
0100
0001
1000
0001
0010
0001
1000
0001
0010
0001
0010
0100
0110
0001
0100
0001
,
1000
0001
0010
0001
1010
0100
1000
0100
0010
0001
0010
0100
1000
0010
0100
0001
,
0100
0010
1000
0100
0011
0001
0010
0100
1000
0100
0010
0001
1000
0001
0010
0001
,
1000
0001
0100
0001
1010
0100
1000
0001
1000
0010
1000
0100
1100
1000
0001
1000
,
1001
0010
0100
0010
0001
0010
1000
0010
0110
0100
0001
0010
0001
1000
0001
0100
,
1100
0001
1000
0100
1000
0010
1000
0001
0101
0001
1000
0100
1000
0010
1000
0001
,
0011
0010
0001
0100
0001
1000
0001
0010
1100
1000
0100
1000
0001
1000
0010
1000
,
1001
1000
0001
1000
0010
1000
0100
1000
1001
0010
0001
0100
0001
1000
0001
0010
,
0110
0100
0001
0010
0001
1000
0001
0100
0110
0001
0010
1000
0010
0001
0010
0100
,
1001
1000
0100
1000
0010
1000
0001
1000
0110
0010
0100
0010
1001
0000
0000
0000
,
0000
0000
0000
0000
1000
0100
0010
0001
1000
0001
1000
0001
0010
0100
1000
0100
,
1000
0100
0010
0001
0100
0000
0000
0000
0000
0000
0000
0000
1010
0000
0000
0000
,
1000
0001
0010
0100
1001
0000
0000
0000
0010
0000
0000
0000
0100
0000
0000
0000
,
1100
0000
1000
0010
0110
0010
0100
0001
,
1010
0001
0010
0100
1001
0100
1000
0010
,
1100
0010
0100
0001
1010
0001
0010
0100
,
1010
0100
1000
0010
1001
0010
0100
0001
,
0101
0001
0010
0100
0011
0100
1000
0010
,
0101
0001
0010
0001
0110
0100
1000
0100
,
1001
0010
0100
0001
1010
0001
0010
0100
,
1001
0100
0001
1000
0110
0001
0100
0001
,
0110
0100
1000
0010
1001
0010
0001
0010
,
0101
0010
1000
0100
1001
0100
0010
1000
,
0101
0001
0100
0001
0110
0100
1000
0010
,
1001
0010
0100
0001
1010
0001
0010
0100
,
1001
0000
1000
0000
0100
1000
0100
0010
0001
0100
0010
1000
0100
1000
0010
0100
,
0001
0010
0100
1000
0010
1000
0100
0010
0001
0100
0010
1000
0100
0010
0001
0010
,
0001
0100
0001
0010
0100
0010
0100
1000
0001
1000
0001
0010
0001
0100
0010
1000
,
0010
0100
0001
0010
0100
0010
0100
0010
0100
0010
0001
0100
0010
1000
0100
1000
,
0010
0100
0010
0100
0010
0100
0010
0100
0001
0010
0001
0010
0100
1000
0010
1000
,
0001
1000
0100
0010
0001
0100
0010
1000
0001
0100
0010
1000
0010
1000
0100
0010
,
0001
0010
0100
1000
0100
0010
0001
0010
0001
0010
0100
1000
0010
0100
0001
0010
,
0001
0010
0100
1000
0010
0100
0001
0010
0200
0000
0000
0000
0000
0000
0000
0000
,
0000
0000
0000
0300
0000
0000
0000
0000
0000
0000
0000
0000
0000
0000
0000
0000
0000
0000
0000
0000
0000
0000
0000
0000
0001
0000
0000
0000
0000
0000
0000
0000
0100
0000
0000
0000
0000
0000
0000
0000
0010
0000
0000
0000
0000
0000
0000
0000
,
1000
0000
0000
0100
0000
0000
1000
0000
0000
0010
0000
0000
1000
0000
0000
0000
0100
0000
0000
0000
0000
0000
0000
0000
0001
0000
0000
0000
0000
0000
0000
0000
0100
0000
0000
0000
0000
0000
0000
0000
0001
0000
0000
0000
0000
0000
0000
0000
,
0010
0000
0000
0100
0000
0000
0010
0000
0000
0100
0000
0000
1000
0000
0000
0000
0001
0000
0000
0000
0000
0000
0000
0000
0010
0000
0000
0000
0000
0000
0000
0000
0100
0000
0000
0000
0000
0000
0000
0000
0001
0000
0000
0000
0000
0000
0000
0000
,
0010
0000
0000
1000
0000
0000
0001
0000
0000
0100
0000
0000
0010
0000
0000
0000
1000
0000
0000
0000
0000
0000
0000
0000
0101
0000
0000
0000
0000
0000
0000
0000
0110
0000
0000
0000
0000
0000
0000
0000
1001
0000
0000
0000
0000
0000
0000
0000
,
1001
0000
0101
0000
1001
0000
0001
0000
0010
0000
0100
0000
,
0010
0000
0000
1000
0000
0000
0010
0000
0000
0100
0000
0000
0001
0000
0000
0000
0010
0000
0000
0000
0000
0000
0000
0000
0100
0000
0000
0000
0000
0000
0000
0000
1000
0000
0000
0000
0000
0000
0000
0000
0010
0000
0000
0000
0000
0000
0000
0000
,
1000
0000
0000
0001
0000
0000
1000
0000
0000
0010
0000
0000
0100
0000
0000
0000
1000
0000
0000
0000
0000
0000
0000
0000
0010
0000
0000
0000
0000
0000
0000
0000
1000
0000
0000
0000
0000
0000
0000
0000
0001
0000
0000
0000
0000
0000
0000
0000
,
0100
0000
0000
0010
0000
0000
1000
0000
0000
0001
0000
0000
0010
0000
0000
0000
0100
0000
0000
0000
0000
0000
0000
0000
0101
0000
0000
0000
0000
0000
0000
0000
1100
0000
0000
0000
0000
0000
0000
0000
0011
0000
0000
0000
0000
0000
0000
0000
,
1010
0000
0110
0000
0110
0000
1001
0000
0010
0000
0001
0000
,
0010
0000
0000
0100
0000
0000
1000
0000
0000
0100
0000
0000
1000
0000
0000
0000
0001
0000
0000
0000
0000
0000
0000
0000
0001
0000
0000
0000
0000
0000
0000
0000
0100
0000
0000
0000
0000
0000
0000
0000
0010
0000
0000
0000
0000
0000
0000
0000
,
0100
0000
0000
0010
0000
0000
1000
0000
0000
0010
0000
0000
1000
0000
0000
0000
0100
0000
0000
0000
0000
0000
0000
0000
0010
0000
0000
0000
0000
0000
0000
0000
1000
0000
0000
0000
0000
0000
0000
0000
0001
0000
0000
0000
0000
0000
0000
0000
,
1000
0000
0000
0001
0000
0000
0010
0000
0000
0100
0000
0000
1000
0000
0000
0000
0001
0000
0000
0000
0000
0000
0000
0000
1001
0000
0000
0000
0000
0000
0000
0000
0110
0000
0000
0000
0000
0000
0000
0000
1001
0000
0000
0000
0000
0000
0000
0000
,
0110
0000
1001
0000
1100
0000
0110
0000
0101
0000
0011
0000
,
1010
0000
0110
0000
1001
0000
1001
0000
0110
0000
0011
0000
,
1100
0000
0101
0000
1001
0000
1010
0000
1100
0000
0011
0000
,
0110
0000
0000
0000
1010
0000
0000
0000
0101
0000
0000
0000
0020
0000
0000
0000
0000
0000
0000
0000
0000
0000
0000
0030
,
1001
1000
0100
0010
0001
0100
0001
0010
0100
1000
0100
1000
,
1010
1000
0100
0010
0001
0010
0100
0010
0001
1000
0001
1000
,
1001
0000
1000
0000
0010
0000
0100
0000
0001
0000
0010
0000
0100
0010
0100
0000
1000
0000
0001
0000
1000
0000
0001
0000
,
1000
0000
0001
0000
1000
0000
0001
0000
0010
0000
0100
0000
1000
0000
0100
0000
0010
0001
0010
0100
1000
0000
0001
0000
,
0011
0100
1000
0100
1000
0100
0010
0001
0100
0001
0010
0001
,
0010
0100
1000
0100
0010
0001
0100
0001
0100
0001
0010
0100
,
1000
0100
1000
0010
1000
0010
1000
0010
0100
0010
0100
0010
,
0100
0001
0010
0001
0010
0100
0010
0100
1000
0100
1000
0100
,
0010
0001
0100
0001
0100
0001
0010
0001
0010
0100
1000
0100
,
1000
0010
1000
0010
1000
0010
0100
0010
0100
0001
0010
0001
,
0010
0100
0010
0100
1000
0100
0010
0001
0100
0001
0100
0001
,
0010
0001
0010
0100
1000
0100
1000
0100
0010
0001
0100
0001
,
0101
0010
1000
0010
1000
0010
0101
0010
0100
0010
0100
0010
,
1010
0100
0010
0001
0010
0100
1001
0100
1000
0001
1000
0001
,
2002
0000
0000
0000
0000
0000
0000
3003
2000
0000
0000
0000
0000
0000
3002
0000
,
0000
0000
0000
0020
0000
0000
0003
0000
0200
0000
0000
0000
0030
0000
2000
0300
,
0000
0000
0000
0020
3000
0000
0000
0000
0200
0000
0000
0000
0000
0000
0000
0000
,
0000
0030
0000
0000
0001
0000
0301
0010
0002
0000
0000
0000
0020
0000
0003
0000
,
0200
0000
0030
0000
1000
0000
0000
0000
2000
0300
0000
0000
0010
0000
0000
0000
,
0020
3000
0000
0000
0100
0000
0000
0000
0100
0000
0000
0000
0100
0030
0000
0000
,
0001
0000
0010
0000
0001
0000
0010
0001
0010
0100
1000
0010
0100
0001
0100
0010
,
1000
0100
0010
0100
1000
0001
1000
0001
0010
0100
0010
0001
0010
0100
1000
0100
,
0010
0001
0010
1000
0010
0001
0100
0010
1001
0000
2002
0000
0000
0000
0000
0000
,
0000
0000
0000
0000
0000
0000
0000
3003
0000
0000
0000
0000
0000
0000
0000
0000
,
0000
0000
0000
0000
0000
0000
0000
0000
0100
0010
2000
0000
0000
0000
0000
0000
,
0000
0000
0000
3000
0000
0000
0000
0000
,
0000
0000
0000
0000
0110
2002
0000
3003
,
0000
1000
0001
0010
2002
0000
0000
0000
,
0000
3003
0000
0000
1100
0022
0000
0000
,
0033
0000
0000
0000
,
0000
0000
0000
0000
0000
0000
0000
0000
0100
0001
0020
0000
0000
0000
0000
0000
,
0000
0000
0030
0000
,
0000
0000
0000
0000
0101
2020
0000
0000
,
3030
0000
0000
1000
0000
0000
0010
0000
0000
0100
0000
0000
1001
0000
0000
0000
0001
0000
0000
0000
0010
0000
0000
0000
,
0100
0000
0000
0000
0000
0000
0000
0000
1000
0000
0000
0000
0000
0000
0000
0000
0001
0000
0000
0000
1000
0000
0000
0000
0001
0000
0010
0000
0001
0000
0010
0000
0000
0100
0000
0000
1000
0000
0000
0010
0000
0000
0100
0000
0000
0001
0000
0000
,
0010
0000
0100
0000
1000
0000
0100
0000
0000
1000
0000
0000
0100
0000
0000
0010
0000
0000
0001
0000
0100
0000
0001
0000
0100
0000
0000
0001
0000
0000
0010
0000
0000
0100
0000
0000
1000
0000
0000
0001
0000
0000
1000
0000
0000
0100
0000
0000
,
1000
0000
0000
0010
0000
0000
1000
0000
0000
0001
0000
0000
1000
0000
0000
0010
0000
0000
1000
0000
0000
0100
0000
0000
1000
0000
0001
0000
1000
0000
0100
0000
0000
0100
0000
0000
0010
0000
0000
0100
0000
0000
0010
0000
0000
1000
0000
0000
,
0010
0100
0010
1000
0010
0001
0100
0001
1000
0001
0010
0001
0100
0001
0010
0001
,
0100
0010
1000
0001
1000
0100
1000
0010
1000
0010
1000
0100
1000
0001
1000
0001
,
1000
0010
1000
0010
0001
0010
0100
0010
2001
0000
0000
0000
0000
0000
0000
0000
,
3002
0003
2000
3002
,
2003
0000
3100
0000
0010
0001
0100
0001
,
0100
0001
0010
0100
2000
0000
0000
0000
,
3002
0020
0000
0000
0000
0030
0000
0003
2000
3002
2000
0000
0000
0000
3000
0000
,
0003
1001
0110
0000
0000
1001
0000
0000
0000
1000
0001
0200
0000
0000
0300
0000
,
0220
0000
0000
0330
2002
0000
0000
3003
0220
0000
0330
0000
0000
1001
0000
0000
,
0000
1001
0000
0000
0000
0220
0000
0330
0000
0000
2002
0000
3003
0000
0220
0000
,
0000
0000
0000
0000
0330
1001
0000
2002
0000
0000
3003
1010
0000
0000
0000
0000
,
0202
0000
0000
0000
0300
0000
0003
0010
0001
0022
0000
0000
0000
0000
0033
1000
,
0010
2002
0000
0000
3003
0202
0303
0000
0000
0000
1010
0000
0101
0000
0000
0000
,
0110
1001
0000
2002
0000
0000
0000
3003
0000
0000
0000
2002
0000
0000
0000
0000
,
3003
0000
1000
0001
2002
0000
0000
3003
0000
0000
0000
0000
0000
1001
0000
0000
,
0000
0110
0000
0000
1001
0000
2002
0000
0000
0000
0000
0000
0000
0000
0000
0000
,
0000
0000
0000
0000
0000
0000
0000
0000
0000
0000
0000
0000
3003
0000
2002
0000
0000
0000
0000
0000
0000
0000
0000
0000
0000
0000
0000
3003
0000
0000
0000
0000
,
0010
1001
0100
1010
,
0001
0010
0100
1000
0100
1000
0100
0010
0001
0011
0000
0000
,
0010
0101
0100
1001
,
1000
0011
0001
1010
,
0010
0011
1000
1100
,
0100
0010
1000
0010
0100
0001
0010
0100
1000
1001
0000
0000
,
0100
0110
0001
0110
,
0010
0000
1001
0000
1000
0100
0010
0001
,
0100
0101
1000
1010
,
0001
0000
0000
0000
0000
0000
0000
0000
0000
0000
0000
0000
1100
0000
0000
0000
0000
0000
0000
0000
0000
0000
0000
0000
0100
0000
0000
0000
0010
0000
0000
0000
0001
0000
0000
0000
0010
0000
0000
0100
0000
0000
1000
0000
0000
0100
0000
0000
,
1000
1001
0010
0110
,
0100
1001
0001
1010
,
0001
0101
1000
1100
,
0010
0000
0000
0000
0000
0000
0000
0000
0000
0000
0000
0000
0011
0000
0000
0000
0000
0000
0000
0000
0000
0000
0000
0000
0100
0000
0000
0000
0010
0000
0000
0000
0001
0000
0000
0000
0010
0000
0000
1000
0000
0000
0010
0000
0000
0001
0000
0000
,
0010
0000
0110
0100
0000
0001
1001
0000
,
0010
0000
1001
0010
1000
0001
0110
0100
,
1001
0100
0010
0001
0100
0010
1000
0010
1000
0001
1000
0100
1000
0001
1000
0010
,
1000
0100
0010
0001
0100
0001
1000
0001
0010
0001
1000
0001
0010
0001
1000
0001
,
0010
0001
0100
0001
1000
0001
1000
0100
1000
0001
1000
0010
1000
0010
1000
0010
,
0100
0001
0100
0010
1000
0100
0010
0001
0010
0100
1000
0010
1000
0100
1000
0001
,
1000
0100
0010
0001
0010
1000
0010
0001
1000
0001
0010
0001
0100
0001
1000
0001
,
0010
0100
1000
0001
1000
0100
1000
0010
1000
0100
1000
0100
0010
1000
0010
0100
,
0010
1000
0010
0100
0010
0001
0010
0001
1000
0001
0010
0001
0100
0001
0100
0001
,
1000
0001
0010
0100
1000
0001
1000
0010
1000
0100
1000
0010
1000
0100
1000
0010
,
1000
0000
0000
0001
0000
0000
0100
0000
0000
0001
0000
0000
0010
0000
0100
0000
1000
0000
0200
0000
0000
0000
0000
0000
0000
0000
0000
0000
0000
0000
0000
0000
0000
0000
0000
0000
0000
0000
0000
0300
0000
0000
0001
0000
0000
1000
0000
0000
,
0001
0000
1000
0000
0100
0000
0020
0000
0002
0000
0000
0030
0000
0003
0010
0001
,
0200
0000
0000
0000
0302
0000
0000
0000
0023
0000
0000
0000
0000
0030
0001
0000
,
1000
0100
1000
0010
2020
0000
3030
0000
,
0202
0000
0000
0000
0303
0000
0000
0000
0022
0000
0000
0000
0030
0003
0010
0001
,
0020
0000
0000
0000
0230
0000
1000
0000
2000
0000
0000
0000
0000
3000
2300
0000
,
0001
0000
0000
0000
0000
0000
0000
0000
0002
3000
0000
0000
0000
0000
1003
0000
,
0001
0000
0000
1000
0000
0000
0001
0000
0000
0010
0000
0000
1002
0000
0000
0000
0000
0000
1003
0000
0100
0000
0010
0000
,
0001
0100
0010
1000
0100
0010
1001
0000
0000
0000
0000
0000
;
